Loading...
 * Dettagli Torrent   globale  | Commenti (0) 


- Una stagione da ricordare (2018).720p.H264.italian.english.Ac3-5.1.sub.ita-MIRCrew -


Download via torrent:
Categoria bittorrent BDRip
Descrizione
The Miracle Season - Una stagione da ricordare -  2018.720p.H264.italian.english.Ac3-5.1.sub.ita-MIRCrew


NO FOUND ONLY ORIGINAL RELEASE

My release is always in double track audio italian and Original audio
for select it use VLC or dvd player home
not use wmp

Una stagione da ricordare

The Miracle Season


2018

Quality MIRCrew on HD 720p da  1,9 gb











Titolo originale The Miracle Season
Lingua originale inglese
Paese di produzione Stati Uniti d'America
Anno 2018
Durata 101 min
Rapporto 2.35:1
Genere drammatico, sportivo
Regia Sean McNamara
Soggetto Caroline Found, David Aaron Cohen



   Erin Moriarty: Kelley Fliehler
   Danika Yarosh: Caroline "Line" Found
   Helen Hunt: Kathy Bresnahan
   William Hurt: Ernie Found
   Jason Gray-Stanford: Scott Sanders
   Burkely Duffield: Alex
   Tiera Skovbye: Brie
   Natalie Sharp: Mack
   Lillian Doucet-Roche: Taylor
   Nesta Cooper: Lizzy
   Jillian Fargey: Ellyn Found



l film narra la storia realmente accaduta della squadra di pallavolo della Iowa West High School a seguito della morte del loro capitano, Caroline Found.



After the tragic death of star volleyball player Caroline "Line" Found, a team of dispirited high school girls must band together under the guidance of their tough-love coach in hopes of winning the state championship.

 





General
Unique ID                                : 83904375270110390514092688630555473098 (0x3F1F6516D761050B1210B9F45F81F4CA)
Complete name                            : Una stagione da ricordare - The Miracle Season (201.720p.h264.ita.eng.sub.ita-MIRCrewUna stagione da ricordare - The Miracle Season (201.720p.h264.ita.eng.sub.ita-MIRCrew.mkv
Format                                   : Matroska
Format version                           : Version 4 / Version 2
File size                                : 1.96 GiB
Duration                                 : 1h 40mn
Overall bit rate                         : 2 781 Kbps
Movie name                               : MIRCrew
Encoded date                             : UTC 2019-01-18T17:18:43Z
Writing application                      : mkvmerge v26.0.0 ('In The Game&#39 64-bit
Writing library                          : Lavf55.12.0

Video
ID                                       : 1
Format                                   : AVC
Format/Info                              : Advanced Video Codec
Format profile                           : [email protected]
Format settings, CABAC                   : Yes
Format settings, ReFrames                : 4 frames
Codec ID                                 : V_MPEG4/ISO/AVC
Duration                                 : 1h 40mn
Bit rate                                 : 1 950 Kbps
Width                                    : 1 280 pixels
Height                                   : 528 pixels
Display aspect ratio                     : 2.40:1
Frame rate                               : 24.000 fps
Color space                              : YUV
Chroma subsampling                       : 4:2:0
Bit depth                                : 8 bits
Scan type                                : Progressive
Bits/(Pixel*Frame)                       : 0.120
Stream size                              : 1.33 GiB (68%)
Title                                    : MIRCrew
Writing library                          : x264 core 142 r2479 dd79a61
Encoding settings                        : cabac=1 / ref=1 / deblock=1:-1:-1 / analyse=0x1:0x111 / me=hex / subme=2 / psy=1 / psy_rd=1.00:0.15 / mixed_ref=0 / me_range=16 / chroma_me=1 / trellis=0 / 8x8dct=0 / cqm=0 / deadzone=21,11 / fast_pskip=1 / chroma_qp_offset=0 / threads=6 / lookahead_threads=2 / sliced_threads=0 / nr=0 / decimate=1 / interlaced=0 / bluray_compat=0 / constrained_intra=0 / bframes=3 / b_pyramid=2 / b_adapt=1 / b_bias=0 / direct=1 / weightb=1 / open_gop=0 / weightp=1 / keyint=240 / keyint_min=24 / scenecut=40 / intra_refresh=0 / rc_lookahead=10 / rc=abr / mbtree=1 / bitrate=1950 / ratetol=1.0 / qcomp=0.60 / qpmin=0 / qpmax=69 / qpstep=4 / vbv_maxrate=50000 / vbv_bufsize=62500 / nal_hrd=none / filler=0 / ip_ratio=1.40 / aq=1:1.00
Language                                 : Italian
Default                                  : Yes
Forced                                   : No
DURATION                                 : 01:40:55.375000000
NUMBER_OF_FRAMES                         : 145329
NUMBER_OF_BYTES                          : 1473549165
_STATISTICS_WRITING_APP                  : mkvmerge v26.0.0 ('In The Game&#39 64-bit
_STATISTICS_WRITING_DATE_UTC             : 2019-01-19 15:27:37
_STATISTICS_TAGS                         : BPS DURATION NUMBER_OF_FRAMES NUMBER_OF_BYTES
Color primaries                          : BT.709-5, BT.1361, IEC 61966-2-4, SMPTE RP177
Transfer characteristics                 : BT.709-5, BT.1361
Matrix coefficients                      : BT.709-5, BT.1361, IEC 61966-2-4 709, SMPTE RP177

Audio #1
ID                                       : 2
Format                                   : AC-3
Format/Info                              : Audio Coding 3
Mode extension                           : CM (complete main)
Codec ID                                 : A_AC3
Duration                                 : 1h 40mn
Bit rate mode                            : Constant
Bit rate                                 : 448 Kbps
Channel(s)                               : 6 channels
Channel positions                        : Front: L C R, Side: L R, LFE
Sampling rate                            : 48.0 KHz
Bit depth                                : 16 bits
Compression mode                         : Lossy
Delay relative to video                  : -5ms
Stream size                              : 323 MiB (16%)
Title                                    : Ita Ac3 5.1
Language                                 : Italian
Default                                  : Yes
Forced                                   : No
DURATION                                 : 01:40:55.392000000
NUMBER_OF_FRAMES                         : 189231
NUMBER_OF_BYTES                          : 339101952
_STATISTICS_WRITING_APP                  : mkvmerge v26.0.0 ('In The Game&#39 64-bit
_STATISTICS_WRITING_DATE_UTC             : 2019-01-19 15:27:37
_STATISTICS_TAGS                         : BPS DURATION NUMBER_OF_FRAMES NUMBER_OF_BYTES

Audio #2
ID                                       : 3
Format                                   : AC-3
Format/Info                              : Audio Coding 3
Mode extension                           : CM (complete main)
Codec ID                                 : A_AC3
Duration                                 : 1h 40mn
Bit rate mode                            : Constant
Bit rate                                 : 384 Kbps
Channel(s)                               : 6 channels
Channel positions                        : Front: L C R, Side: L R, LFE
Sampling rate                            : 48.0 KHz
Bit depth                                : 16 bits
Compression mode                         : Lossy
Delay relative to video                  : -5ms
Stream size                              : 277 MiB (14%)
Title                                    : Eng Ac3 5.1
Language                                 : English
Default                                  : No
Forced                                   : No
DURATION                                 : 01:40:55.424000000
NUMBER_OF_FRAMES                         : 189232
NUMBER_OF_BYTES                          : 290660352
_STATISTICS_WRITING_APP                  : mkvmerge v26.0.0 ('In The Game&#39 64-bit
_STATISTICS_WRITING_DATE_UTC             : 2019-01-19 15:27:37
_STATISTICS_TAGS                         : BPS DURATION NUMBER_OF_FRAMES NUMBER_OF_BYTES

Menu
00:00:00.000                             : :Capitolo 01
00:16:19.416                             : :Capitolo 02
00:28:39.833                             : :Capitolo 03
00:41:04.916                             : :Capitolo 04
00:53:12.416                             : :Capitolo 05
01:06:32.583                             : :Capitolo 06
01:19:54.666                             : :Capitolo 07
01:33:47.458                             : :Capitolo 08




Info: Per scaricare devi usare un client come uTorrent o Transmission
AnnounceURL
udp://tracker.coppersurfer.tk:6969/announce
Hash b81d2114b6f57e9e0980425b33c1745f437cd612
Peers seeds: 153 , leech: 42
Size 1.97 GB
Completato 869x
Aggiunto 10.02.19 - 17:02:45
Uploader   robbyrs
Votazione (Voti: 0)


Condividi questo bittorrent:


html/blog:


bbcode/forum:




Aggiungi Commento


counter